Torr.pl - Darmowe torrenty

Nasze-Torrenty-Upload-1MB
Jak zarobić na dilerce? - How to Make Money Selling Drugs *2012* [BRRip.XViD] [Lektor PL] [TSR] / Nasze torrenty - Najlepszy upload torrPlony przyszłości - Les moissons du futur *2012* [DVBRip.XviD-Sante] [Lektor PL] [TSR] / Nasze torrenty - Najlepszy upload torrMr Jelly Belly. Król żelków - Candyman *2010* [DVBRip.XviD-Sante] [Lektor PL] [TSR] / Nasze torrenty - Najlepszy upload torrSzczęśliwi ludzie: rok w tajdze - Happy People: A Year in the Taiga *2010* [PLSUBBED] [DVDRip.XviD-BiDA] [Napisy PL] [TSR] / Nasze torrenty - Najlepszy upload torrNarkotyki - Drugs Inc Seattle *2012* [DVBRip.x264,XviD-Sante] [LEKTOR PL] [TSR] / Nasze torrenty - Najlepszy upload torrNarkotyki - Drugs Inc San Francisco *2012* [DVBRip.x264,XviD-Sante] [LEKTOR PL] [TSR] / Nasze torrenty - Najlepszy upload torrNarkotyki - Drugs Inc Kingston *2012* [DVBRip.x264,XviD-Sante] [LEKTOR PL] [TSR] / Nasze torrenty - Najlepszy upload torrNarkotyki - Drugs Inc Houston *2012* [DVBRip.x264,XviD-Sante] [LEKTOR PL] [TSR] / Nasze torrenty - Najlepszy upload torrNarkotyki - Drugs Inc - Złodzieje samochodów *2011* [DVBRip.x264,XviD-Sante] [LEKTOR PL] [TSR] / Nasze torrenty - Najlepszy upload torrNarkotyki - Drugs Inc - Środki przeciwbólowe *2011* [DVBRip.x264,XviD-Sante] [LEKTOR PL] [TSR] / Nasze torrenty - Najlepszy upload torr



Zaloguj się
Użytkownik:
Password:
[Zarejestruj się]
[Odzyskaj hasło]



Partnerzy



Detale torrenta "Zamrożone błyskawice Die Gefrorenen Blitze 1967 [TVRip] [XviD] [RUS]"

Zamrożone błyskawice Die Gefrorenen Blitze 1967 [TVRip] [XviD] [RUS]



Detale torrenta

Film bez limitu Zamrożone błyskawice  Die Gefrorenen Blitze  1967 [TVRip] [XviD] [RUS]  Pobierz torrent Zamrożone błyskawice  Die Gefrorenen Blitze  1967 [TVRip] [XviD] [RUS]  

Nazwa: Zamrożone błyskawice Die Gefrorenen Blitze 1967 [TVRip] [XviD] [RUS]
Kategoria : Filmy > Polskie
Rozmiar: 1.41 GB
Hash: be51bd712b9a056d5e7056a810da1c260144ebf0
Dodany przez: Monimar
Dodany: 2014-02-23 16:17
Pobrań: 0
Tagi: Zamrożone, błyskawice, Die, Gefrorenen, Blitze, 1967, TVRip, XviD, RUS, Filmy, Polskie
Opis:
Film produkcji NRD o ruchu oporu w czasie II wojny w Penemünde, gdzie powstawały rakiety V-1 i V-2. Na uwagę zasługuje udział polskich aktorów: Zdzisław Maklakiewicz, Ewa Wiśniewska, Emil Karewicz, Leon Niemczyk, Kazimierz Rudzki, Wacław Kowalski.
 Film z rosyjskim lektorem - materiał dla tworzących polskie napisy.
Zamrozone blyskawice.1967.cz.I.avi
Format : AVI
 Format/Info : Audio Video Interleave
 File size : 722 MiB
 Duration : 1h 15mn
 Overall bit rate : 1 337 Kbps
 Writing application : VirtualDubMod 1.5.10.2 (build 2542/release)
 Writing library : VirtualDub build 25854/release
Video
 ID : 0
 Format : MPEG-4 Visual
 Format settings, BVOP : 1
 Format settings, QPel : No
 Format settings, GMC : No warppoints
 Format settings, Matrix : Default (H.263)
 Muxing mode : Packed bitstream
 Codec ID : DX50
 Codec ID/Hint : DivX 5
 Duration : 1h 15mn
 Bit rate : 1 199 Kbps
 Width : 720 pixels
 Height : 304 pixels
 Display aspect ratio : 2.35:1
 Frame rate : 25.000 fps
 Color space : YUV
 Chroma subsampling : 4:2:0
 Bit depth : 8 bits
 Scan type : Progressive
 Compression mode : Lossy
 Bits/(Pixel*Frame) : 0.219
 Stream size : 648 MiB (90%)
 Writing library : DivX 6.1.1 (U*censored* 2006-02-01)
Audio
 ID : 1
 Format : MPEG Audio
 Format version : Version 1
 Format profile : Layer 3
 Codec ID : 55
 Codec ID/Hint : MP3
 Duration : 1h 15mn
 Bit rate mode : Constant
 Bit rate : 128 Kbps
 Channel(s) : 1 channel
 Sampling rate : 48.0 KHz
 Compression mode : Lossy
 Stream size : 69.1 MiB (10%)
 Alignment : Split accross interleaves
 Interleave, duration : 40 ms (1.00 video frame)
 Interleave, preload duration : 500 ms
Zamrozone blyskawice.1967.cz.II.avi
Format : AVI
 Format/Info : Audio Video Interleave
 File size : 724 MiB
 Duration : 1h 15mn
 Overall bit rate : 1 333 Kbps
 Writing application : VirtualDubMod 1.5.10.2 (build 2542/release)
 Writing library : VirtualDub build 25854/release
Video
 ID : 0
 Format : MPEG-4 Visual
 Format settings, BVOP : 1
 Format settings, QPel : No
 Format settings, GMC : No warppoints
 Format settings, Matrix : Default (H.263)
 Muxing mode : Packed bitstream
 Codec ID : DX50
 Codec ID/Hint : DivX 5
 Duration : 1h 15mn
 Bit rate : 1 195 Kbps
 Width : 720 pixels
 Height : 304 pixels
 Display aspect ratio : 2.35:1
 Frame rate : 25.000 fps
 Color space : YUV
 Chroma subsampling : 4:2:0
 Bit depth : 8 bits
 Scan type : Progressive
 Compression mode : Lossy
 Bits/(Pixel*Frame) : 0.218
 Stream size : 649 MiB (90%)
 Writing library : DivX 6.1.1 (U*censored* 2006-02-01)
Audio
 ID : 1
 Format : MPEG Audio
 Format version : Version 1
 Format profile : Layer 3
 Codec ID : 55
 Codec ID/Hint : MP3
 Duration : 1h 15mn
 Bit rate mode : Constant
 Bit rate : 128 Kbps
 Channel(s) : 1 channel
 Sampling rate : 48.0 KHz
 Compression mode : Lossy
 Stream size : 69.5 MiB (10%)
 Alignment : Split accross interleaves
 Interleave, duration : 40 ms (1.00 video frame)
 Interleave, preload duration : 500 ms
http://torr.pl - torrenty i warez


Oceny:Brak ocen (Zaloguj się by ocenić torrenta)

Lista plików: 


Komentarze

NOCOMMENTS

Szukaj






Okładki
Pobierz darmowy torrent Jak zarobić na dilerce? - How to Make Money Selling Drugs *2012* [BRRip.XViD] [Lektor PL] [TSR] / Nasze torrenty - Najlepszy upload torr
Pobierz darmowy torrent Plony przyszłości - Les moissons du futur *2012* [DVBRip.XviD-Sante] [Lektor PL] [TSR] / Nasze torrenty - Najlepszy upload torr
Pobierz darmowy torrent Mr Jelly Belly. Król żelków - Candyman *2010* [DVBRip.XviD-Sante] [Lektor PL] [TSR] / Nasze torrenty - Najlepszy upload torr
Pobierz darmowy torrent Szczęśliwi ludzie: rok w tajdze - Happy People: A Year in the Taiga *2010* [PLSUBBED] [DVDRip.XviD-BiDA] [Napisy PL] [TSR] / Nasze torrenty - Najlepszy upload torr
Pobierz darmowy torrent Narkotyki - Drugs Inc Seattle *2012* [DVBRip.x264,XviD-Sante] [LEKTOR PL] [TSR] / Nasze torrenty - Najlepszy upload torr
Pobierz darmowy torrent Narkotyki - Drugs Inc San Francisco *2012* [DVBRip.x264,XviD-Sante] [LEKTOR PL] [TSR] / Nasze torrenty - Najlepszy upload torr
Pobierz darmowy torrent Narkotyki - Drugs Inc Kingston *2012* [DVBRip.x264,XviD-Sante] [LEKTOR PL] [TSR] / Nasze torrenty - Najlepszy upload torr
Pobierz darmowy torrent Narkotyki - Drugs Inc Houston *2012* [DVBRip.x264,XviD-Sante] [LEKTOR PL] [TSR] / Nasze torrenty - Najlepszy upload torr
Pobierz darmowy torrent Narkotyki - Drugs Inc - Złodzieje samochodów *2011* [DVBRip.x264,XviD-Sante] [LEKTOR PL] [TSR] / Nasze torrenty - Najlepszy upload torr
Pobierz darmowy torrent Narkotyki - Drugs Inc - Środki przeciwbólowe *2011* [DVBRip.x264,XviD-Sante] [LEKTOR PL] [TSR] / Nasze torrenty - Najlepszy upload torr

torrenty